The Loo Family Blog
Where all the LOOS & LADS meet!

uploaded




Movie

April 3, 2012

A Few Best Men 2012 DVDSCR.XViD-nCODE

A Few Best Men 2012 DVDSCR.XViD-nCODE

A comedy about a groom and his three best men who travel to the Australian outback for a wedding.

A.Few.Best.Men.2012.DVDSCR.XViD-nCODE
Format                                   : AVI
Format/Info                              : Audio Video Interleave
File size                                : 701 MiB
Duration                                 : 1h 36mn
Overall bit rate                         : 1 015 Kbps
Writing application                      : Nandub v1.0rc2
Writing library                          : Nandub build 1853/release
Copyright                                : encoder= nCODE …. w-bb
Video
ID                                       : 0
Format                                   : MPEG-4 Visual
Format profile                           : Advanced Simple@L5
Format settings, BVOP                    : 2
Format settings, QPel                    : No
Format settings, GMC                     : No warppoints
Format settings, Matrix                  : Default (H.263)
Codec ID                                 : XVID
Codec ID/Hint                            : XviD
Duration                                 : 1h 36mn
Bit rate                                 : 878 Kbps
Width                                    : 624 pixels
Height                                   : 256 pixels
Display aspect ratio                     : 2.40:1
Frame rate                               : 25.000 fps
Color space                              : YUV
Chroma subsampling                       : 4:2:0
Bit depth                                : 8 bits
Scan type                                : Progressive
Compression mode                         : Lossy
Bits/(Pixel*Frame)                       : 0.220
Stream size                              : 606 MiB (86%)
Writing library                          : XviD 1.2.1 (UTC 2008-12-04)
Audio
ID                                       : 1
Format                                   : MPEG Audio
Format version                           : Version 1
Format profile                           : Layer 3
Mode                                     : Joint stereo
Mode extension                           : MS Stereo
Codec ID                                 : 55
Codec ID/Hint                            : MP3
Duration                                 : 1h 36mn
Bit rate mode                            : Constant
Bit rate                                 : 128 Kbps
Channel(s)                               : 2 channels
Sampling rate                            : 48.0 KHz
Compression mode                         : Lossy
Stream size                              : 88.4 MiB (13%)
Alignment                                : Split accross interleaves
Interleave, duration                     : 40 ms (1.00 video frame)
Interleave, preload duration             : 500 ms
Writing library                          : LAME3.99r
Encoding settings                        : -m j -V 4 -q 2 -lowpass 17 -b 128
hope u njoy!!

xqbqkjfi
vlmnusc5
30ulpjsb

(10+ hostings)
http://theloo.katt.it/452fa
http://theloo.katt.it/110aa3
http://theloo.katt.it/820ba6
http://theloo.katt.it/d042f8

(iMirror – iFile)
http://theloo.katt.it/18776
http://theloo.katt.it/195417
http://theloo.katt.it/24378e
http://theloo.katt.it/5f14ca

No pass

Taken from:
A Few Best Men 2012 DVDSCR.XViD-nCODE
Hey, did you know that you can also add this to your favorite list? FavoriteLoadingAdd to favorites






uploaded

 
 

 
Image lthheader.jpg

Wot I Think: Lego The Hobbit

Lego The Hobbit could simply be called ‘There’ because there ain’t no ‘Back Again’.
by Adam Smith
0

 
 
 

VA – Deeper Meaning Vol.1 (2014)

[center][img]http://i58.fastpic.ru/big/2014/0412/16/39ce5346651790881dd81beed3b7eb16.jpg[/img] [b]Deeper Meaning Vol.1 (2014) [/b] Deep House / Tech House / Techno | Deep Rec 320 kbps | MP3 | unmixed | 03 March, 2014 | 01:04:34...
by gofree
0

 
 
Image 0ab7039644f8a900dc6d3948611ed20a.jpg

SI Weld-Planner 2012.0 for Windows

SI Weld-Planner 2012.0 for Windows | 1.2 GB Weld Planner is designed for simulation of welding technology. Weld Planner allows you to determine the stresses and strains after the welding process metals Application Weld Planner...
by gofree
0

 

 
Image dcsworld01.png

The Flare Path: For Horsemen Of The Apocalypse

Here at Flare Path we take flight simulation extremely seriously. When a company like Eagle Dynamics goes to the trouble of releasing a free aerodyne as lifelike and lively as the ‘new’  DCS World Mustang, we believe it...
by Tim Stone
0

 
userporn
 
Image SapphireTriX.jpg

Week in Tech: World’s Best GPU, Elite 4 + VR + IR

Is Sapphire’s Tri-X Radeon R9 290 the world’s best graphics card? I think it just might be. OK, it’s only the best graphics card in the world in a given context – one in which you’re willing and able to cough up £33...
by Jeremy Laird
0

 




uploaded.to

0 Comments


Be the first to comment!


Leave a Reply


uploaded